<?xml version="1.0" standalone="no"?>
<!DOCTYPE svg PUBLIC "-//W3C//DTD SVG 1.1//EN" "http://www.w3.org/Graphics/SVG/1.1/DTD/svg11.dtd">
<svg xmlns="http://www.w3.org/2000/svg">
<metadata>Copyright (C) 2024 by original authors @ fontello.com</metadata>
<defs>
<font id="stream-chat-icons" horiz-adv-x="1000" >
<font-face font-family="stream-chat-icons" font-weight="400" font-stretch="normal" units-per-em="1000" ascent="850" descent="-150" />
<missing-glyph horiz-adv-x="1000" />
<glyph glyph-name="action" unicode="&#xe800;" d="M500 517c46 0 83 37 83 83 0 46-37 83-83 83-46 0-83-37-83-83 0-46 37-83 83-83z m0-84c-46 0-83-37-83-83 0-46 37-83 83-83 46 0 83 37 83 83 0 46-37 83-83 83z m0-250c-46 0-83-37-83-83 0-46 37-83 83-83 46 0 83 37 83 83 0 46-37 83-83 83z" horiz-adv-x="1000" />

<glyph glyph-name="arrow-down" unicode="&#xe801;" d="M309 504l191-190 191 190 59-58-250-250-250 250 59 58z" horiz-adv-x="1000" />

<glyph glyph-name="arrow-left" unicode="&#xe802;" d="M654 541l-58 59-250-250 250-250 58 59-190 191 190 191z" horiz-adv-x="1000" />

<glyph glyph-name="arrow-right" unicode="&#xe803;" d="M404 600l-58-59 191-191-191-191 58-59 250 250-250 250z" horiz-adv-x="1000" />

<glyph glyph-name="close" unicode="&#xe804;" d="M792 583l-59 59-233-233-233 233-59-59 233-233-233-233 59-59 233 233 233-233 59 59-233 233 233 233z" horiz-adv-x="1000" />

<glyph glyph-name="arrow-up" unicode="&#xe805;" d="M691 196l-191 191-191-191-59 58 250 250 250-250-59-58z" horiz-adv-x="1000" />

<glyph glyph-name="chat-bubble" unicode="&#xe806;" d="M779 670h-558c-39 0-70-32-70-70v-629l139 140h489c39 0 70 32 70 70v419c0 38-31 70-70 70z m0-489h-489l-69-70v489h558v-419z" horiz-adv-x="1000" />

<glyph glyph-name="pause" unicode="&#xe807;" d="M250 58h167v584h-167v-584z m333 584v-584h167v584h-167z" horiz-adv-x="1000" />

<glyph glyph-name="download" unicode="&#xe808;" d="M806 432c-28 143-154 251-306 251-120 0-225-68-277-168-125-13-223-120-223-248 0-138 112-250 250-250h542c115 0 208 93 208 208 0 110-85 199-194 207z m-14-332h-542c-92 0-167 75-167 167 0 85 64 156 149 165l44 5 21 39c40 77 117 124 203 124 109 0 203-77 225-185l12-62 64-5c65-4 116-58 116-123 0-69-57-125-125-125z m-232 333h-120v-125h-107l167-166 167 166h-107v125z" horiz-adv-x="1000" />

<glyph glyph-name="delivered" unicode="&#xe809;" d="M375 175l-175 175-58-58 233-234 500 500-58 59-442-442z" horiz-adv-x="1000" />

<glyph glyph-name="reaction" unicode="&#xe80b;" d="M500 767c-230 0-417-187-417-417 0-230 187-417 417-417 230 0 417 187 417 417 0 230-187 417-417 417z m0-750c-184 0-333 149-333 333 0 184 149 333 333 333 184 0 333-149 333-333 0-184-149-333-333-333z m146 375c34 0 62 28 62 62 0 35-28 63-62 63-35 0-63-28-63-63 0-34 28-62 63-62z m-292 0c35 0 63 28 63 62 0 35-28 63-63 63-34 0-62-28-62-63 0-34 28-62 62-62z m146-271c97 0 180 61 213 146h-426c33-85 116-146 213-146z" horiz-adv-x="1000" />

<glyph glyph-name="error" unicode="&#xe80c;" d="M500 767c-230 0-417-187-417-417 0-230 187-417 417-417 230 0 417 187 417 417 0 230-187 417-417 417z m42-625h-84v83h84v-83z m0 166h-84v250h84v-250z" horiz-adv-x="1000" />

<glyph glyph-name="read" unicode="&#xe80d;" d="M749 571l-59 58-264-264 58-58 265 264z m176 58l-441-440-174 173-58-58 232-233 500 500-59 58z m-909-325l233-233 58 58-232 233-59-58z" horiz-adv-x="1000" />

<glyph glyph-name="retry" unicode="&#xe80e;" d="M735 585c-60 61-143 98-235 98-184 0-333-149-333-333 0-184 149-333 333-333 155 0 285 106 322 250h-87c-34-97-126-167-235-167-138 0-250 112-250 250 0 138 112 250 250 250 69 0 131-29 176-74l-134-134h291v291l-98-98z" horiz-adv-x="1000" />

<glyph glyph-name="reply-in-thread" unicode="&#xe80f;" d="M417 496v167l-292-292 292-292v171c208 0 354-67 458-212-42 208-167 416-458 458z" horiz-adv-x="1000" />

<glyph glyph-name="send" unicode="&#xe810;" d="M167-67l833 417-833 417 0-324 595-93-595-93 0-324z" horiz-adv-x="1000" />

<glyph glyph-name="attach" unicode="&#xe811;" d="M542 558h-84v-166h-166v-84h166v-166h84v166h166v84h-166v166z m-42 209c-230 0-417-187-417-417 0-230 187-417 417-417 230 0 417 187 417 417 0 230-187 417-417 417z m0-750c-184 0-333 149-333 333 0 184 149 333 333 333 184 0 333-149 333-333 0-184-149-333-333-333z" horiz-adv-x="1000" />

<glyph glyph-name="mic" unicode="&#xe812;" d="M350 225c83 0 150 67 150 150v300c0 83-67 150-150 150-83 0-150-67-150-150v-300c0-83 67-150 150-150z m250 150c0-138-112-250-250-250-138 0-250 112-250 250h-100c0-176 131-321 300-346v-154h100v154c170 25 300 170 300 346h-100z" horiz-adv-x="700" />

<glyph glyph-name="bin" unicode="&#xe813;" d="M250 58c0-45 38-83 83-83h334c46 0 83 38 83 83v417c0 46-37 83-83 83h-334c-45 0-83-37-83-83v-417z m500 625h-104l-30 30c-7 7-18 12-29 12h-174c-11 0-22-5-29-12l-30-30h-104c-23 0-42-18-42-41 0-23 19-42 42-42h500c23 0 42 19 42 42 0 23-19 41-42 41z" horiz-adv-x="1000" />

<glyph glyph-name="play" unicode="&#xe814;" d="M398 640c-28 19-65-1-65-34v-511c0-34 37-54 65-35l383 255c25 17 25 53 0 70l-383 255z" horiz-adv-x="1000" />
</font>
</defs>
</svg>
